THE-LOST.Ro


 
AcasaCalendarFAQCautareMembriGrupuriInregistrareConectare
Servere: Counter-Strike, Zombie-Plague ,GunGame-4....connect 89.39.75.108:27015........De Vanzare.....Preturi mici...contact la id: the_lost_cs.
>>>connect 89.42.206.254:27015 >>>>

Distribuiţi | 
 

 Film: I Am Number Four 2011

In jos 
AutorMesaj
THE.LOST
Administrator
Administrator
avatar

Mesaje : 72
Puncte : 202
Data de inscriere : 23/03/2010
Varsta : 33
Localizare : Prin Satelit

MesajSubiect: Film: I Am Number Four 2011   Dum Apr 10, 2011 12:25 pm





IMDB:
http://www.imdb.com/title/tt1464540/



Language : English
Format/Info : Audio Video Interleave
Format profile : OpenDML
File size : 1.28 GiB
Duration : 1h 48mn
Overall bit rate : 1 694 Kbps

Video
ID : 0
Format : MPEG-4 Visual
Format profile : Simple@L3
Format settings, BVOP : No
Format settings, QPel : No
Format settings, GMC : No warppoints
Format settings, Matrix : Default (H.263)
Codec ID : XVID
Codec ID/Hint : XviD
Duration : 1h 48mn
Bit rate : 1 549 Kbps
Width : 720 pixels
Height : 480 pixels
Display aspect ratio : 1.500
Frame rate : 29.970 fps
Original frame rate : 29.000 fps
Standard : NTSC
Resolution : 24 bits
Colorimetry : 4:2:0
Scan type : Progressive
Bits/(Pixel*Frame) : 0.150
Stream size : 1.17 GiB (91%)
Writing library : XviD 1.2.1 (UTC 2008-12-04)

Audio
ID : 1
Format : MPEG Audio
Format version : Version 1
Format profile : Layer 3
Format_Settings_Mode : Joint stereo / MS Stereo
Codec ID : 55
Codec ID/Hint : MP3
Duration : 1h 48mn
Bit rate mode : Constant
Bit rate : 128 Kbps
Channel(s) : 2 channels
Sampling rate : 44.1 KHz
Resolution : 16 bits
Stream size : 99.0 MiB (8%)
Alignment : Aligned on interleaves
Interleave, duration : 26 ms (0.78 video frame)
Writing library : LAME3.98.2

Release notes...

Another quality release from IFLIX
More to come very soon!

Video source: Ours
Audio source: Ours




POZE:








Download:

I Am Number Four 2011


bounce bounce bounce affraid










Sus In jos
Vezi profilul utilizatorului http://the-lost.forumz.ro
 
Film: I Am Number Four 2011
Sus 
Pagina 1 din 1

Permisiunile acestui forum:Nu puteti raspunde la subiectele acestui forum
THE-LOST.Ro :: Filme & MUzica-
Mergi direct la: